<?xml version="1.0" standalone="no"?>
<!DOCTYPE svg PUBLIC "-//W3C//DTD SVG 1.1//EN" "http://www.w3.org/Graphics/SVG/1.1/DTD/svg11.dtd" >
<svg xmlns="http://www.w3.org/2000/svg">
<metadata>Generated by IcoMoon</metadata>
<defs>
<font id="icomoon" horiz-adv-x="1024">
<font-face units-per-em="1024" ascent="960" descent="-64" />
<missing-glyph horiz-adv-x="1024" />
<glyph unicode="&#x20;" horiz-adv-x="512" d="" />
<glyph unicode="&#xe900;" d="M634.88 380.416c-1.024 0-3.072 1.024-4.096 1.024-13.312 5.12-27.648 10.24-40.96 14.336-8.192 3.072-17.408 6.144-25.6 9.216-10.24-19.456-32.768-26.624-51.2-18.432-20.48 9.216-27.648 31.744-20.48 49.152 8.192 19.456 28.672 30.72 52.224 21.504 24.576 43.008 50.176 86.016 74.752 128-4.096 5.12-7.168 10.24-10.24 15.36-2.048 3.072-3.072 6.144-3.072 9.216-2.048 13.312 2.048 24.576 10.24 33.792 7.168 8.192 16.384 11.264 26.624 11.264 12.288 0 22.528-4.096 30.72-12.288 13.312-13.312 14.336-36.864 2.048-51.2-1.024-1.024-1.024-2.048 0-3.072 9.216-10.24 18.432-20.48 27.648-30.72 9.216-11.264 19.456-21.504 28.672-32.768 0 0 1.024-1.024 1.024-1.024 9.216 6.144 18.432 8.192 28.672 6.144 8.192-1.024 15.36-5.12 21.504-11.264 12.288-13.312 13.312-32.768 5.12-47.104-8.192-13.312-26.624-24.576-48.128-16.384-9.216-16.384-17.408-32.768-26.624-49.152 0 0 0 0-1.024 0-2.048 1.024-5.12 3.072-7.168 4.096 5.12 9.216 10.24 19.456 15.36 28.672 4.096 7.168 7.168 13.312 10.24 19.456-4.096 5.12-8.192 10.24-12.288 15.36-14.336-5.12-29.696-9.216-45.056-14.336 1.024-4.096 1.024-8.192 2.048-13.312 2.048-11.264 3.072-22.528 5.12-32.768-2.048 0-5.12-1.024-7.168-1.024s-2.048 0-2.048 1.024c-2.048 14.336-4.096 28.672-6.144 43.008-13.312-4.096-27.648-8.192-40.96-13.312-17.408-5.12-35.84-11.264-53.248-17.408-1.024 0-2.048-1.024-2.048-2.048 0-4.096 0-9.216 0-13.312 0 0 1.024 0 1.024 0 21.504-7.168 43.008-15.36 64.512-22.528 2.048-1.024 3.072-2.048 5.12-2.048-3.072 0-4.096-2.048-5.12-5.12zM566.272 437.76c0 0 1.024 0 1.024 0 14.336 5.12 28.672 9.216 44.032 13.312 16.384 5.12 32.768 10.24 49.152 15.36 2.048 1.024 3.072 2.048 2.048 4.096-1.024 3.072-1.024 6.144-1.024 9.216-3.072 18.432-5.12 36.864-8.192 56.32-2.048 14.336-4.096 28.672-6.144 41.984-6.144 1.024-12.288 2.048-18.432 3.072-24.576-43.008-49.152-86.016-73.728-128 2.048-4.096 6.144-9.216 11.264-15.36zM715.776 485.888c-2.048 12.288 1.024 23.552 9.216 33.792-19.456 22.528-38.912 44.032-58.368 66.56-4.096-2.048-8.192-4.096-12.288-6.144 5.12-35.84 11.264-72.704 16.384-109.568 15.36 5.12 29.696 10.24 45.056 15.36zM643.072 588.288c16.384 0 30.72 13.312 30.72 29.696s-13.312 29.696-29.696 30.72c-16.384 0-30.72-13.312-30.72-29.696s13.312-29.696 29.696-30.72zM753.664 523.776c-16.384 0-29.696-13.312-29.696-29.696s13.312-29.696 29.696-29.696c16.384 0 29.696 13.312 29.696 29.696s-13.312 29.696-29.696 29.696zM528.384 392.704c16.384 0 29.696 13.312 30.72 29.696 0 16.384-13.312 29.696-29.696 30.72-16.384 0-29.696-13.312-29.696-29.696-1.024-17.408 12.288-30.72 28.672-30.72z" />
<glyph unicode="&#xe901;" d="M357.376 459.264c-7.168 0-14.336 0-22.528 0-6.144 0-13.312 0-19.456 0-4.096 0-9.216 2.048-13.312 3.072-8.192 2.048-15.36 5.12-21.504 10.24-5.12 4.096-10.24 8.192-15.36 13.312-7.168 7.168-12.288 16.384-16.384 25.6-3.072 5.12-4.096 12.288-6.144 17.408-1.024 4.096-3.072 9.216-3.072 13.312 0 6.144 0 12.288 0 18.432 0 5.12 1.024 10.24 2.048 14.336 3.072 11.264 8.192 21.504 15.36 30.72 12.288 14.336 26.624 23.552 45.056 28.672 8.192 2.048 16.384 4.096 24.576 5.12 2.048 0 4.096 0 3.072 4.096-1.024 5.12-1.024 11.264 0 17.408 1.024 8.192 3.072 15.36 6.144 22.528 3.072 8.192 7.168 15.36 12.288 22.528 3.072 4.096 6.144 8.192 10.24 11.264 6.144 5.12 12.288 11.264 18.432 16.384 9.216 7.168 18.432 12.288 28.672 16.384 9.216 3.072 18.432 6.144 28.672 9.216 12.288 3.072 25.6 3.072 37.888 2.048 15.36-1.024 29.696-5.12 43.008-12.288 15.36-8.192 28.672-18.432 38.912-32.768 5.12-7.168 10.24-15.36 15.36-22.528 0 0 1.024-1.024 1.024-1.024 48.128 24.576 92.16 14.336 123.904-20.48-2.048-2.048-3.072-4.096-5.12-5.12-1.024 0-2.048 0-3.072 0-5.12 4.096-9.216 8.192-14.336 12.288-7.168 5.12-14.336 10.24-23.552 12.288-6.144 2.048-12.288 3.072-18.432 4.096-8.192 1.024-16.384 1.024-24.576-1.024-12.288-2.048-23.552-6.144-33.792-12.288-4.096-2.048-7.168-1.024-9.216 3.072-5.12 9.216-10.24 18.432-17.408 25.6-5.12 5.12-10.24 11.264-15.36 16.384-10.24 9.216-22.528 15.36-35.84 20.48-8.192 3.072-16.384 4.096-25.6 5.12-1.024 0-2.048 0-2.048 0-5.12 0-10.24 0-15.36 0-14.336-1.024-27.648-4.096-40.96-9.216-18.432-7.168-33.792-18.432-48.128-31.744-12.288-13.312-20.48-27.648-24.576-45.056-2.048-10.24-2.048-20.48 1.024-30.72 0-1.024 0-1.024 0-2.048-7.168-1.024-14.336-2.048-21.504-3.072-20.48-4.096-37.888-11.264-52.224-26.624-13.312-15.36-19.456-32.768-19.456-53.248 0-16.384 5.12-30.72 13.312-44.032 11.264-18.432 27.648-30.72 49.152-34.816 7.168-2.048 15.36-1.024 23.552-1.024 25.6 0 51.2 0 76.8 0 1.024 0 1.024 0 2.048 0 12.288 0 24.576 0 37.888 0 5.12 0 9.216 0 14.336 0 6.144 0 12.288 0 18.432 0 0-3.072 0-6.144 0-9.216-4.096 0-8.192 0-12.288-1.024-7.168 0-14.336 0-22.528 0-13.312 0-25.6 0-38.912 0-12.288 0-24.576 0-37.888 0 0-2.048-5.12-2.048-11.264-2.048z" />
<glyph unicode="&#xe902;" d="M704.512 412.16c2.048-1.024 5.12-3.072 7.168-4.096 0-1.024-1.024-2.048-1.024-2.048 0-27.648 0-55.296 0-82.944 0-1.024 1.024-1.024 1.024-2.048-7.168-5.12-15.36-7.168-24.576-8.192-1.024 0-2.048 0-3.072 1.024 0 33.792 0 68.608 0 102.4 7.168 0 13.312-2.048 20.48-4.096z" />
<glyph unicode="&#xe903;" d="M684.032 416.256c0-33.792 0-68.608 0-102.4 1.024 0 2.048 0 3.072-1.024-10.24-1.024-19.456 2.048-28.672 7.168 0 29.696 0 59.392 0 89.088 3.072 2.048 6.144 3.072 9.216 4.096 1.024 0 1.024 2.048 2.048 2.048 1.024-1.024 1.024-2.048 2.048-1.024 2.048 1.024 5.12 1.024 7.168 1.024 2.048 1.024 4.096 1.024 5.12 1.024z" />
<glyph unicode="&#xe904;" d="M658.432 409.088c0-29.696 0-59.392 0-89.088-6.144 3.072-11.264 8.192-15.36 13.312-3.072 4.096-5.12 8.192-7.168 13.312-2.048 4.096-2.048 8.192-3.072 12.288-1.024 7.168 0 14.336 2.048 21.504 1.024 3.072 2.048 5.12 3.072 8.192 2.048 3.072 4.096 5.12 6.144 8.192 4.096 5.12 9.216 9.216 14.336 12.288z" />
<glyph unicode="&#xe905;" d="M711.68 321.024c0 1.024-1.024 1.024-1.024 2.048 0 27.648 0 55.296 0 82.944 0 1.024 1.024 2.048 1.024 2.048s0 0 1.024 0c8.192-6.144 15.36-13.312 19.456-23.552 8.192-19.456 5.12-36.864-8.192-53.248-3.072-4.096-8.192-7.168-12.288-10.24z" />
<glyph unicode="&#xe906;" d="M357.376 459.264c5.12 0 11.264 0 16.384 0 12.288 0 24.576 0 37.888 0-1.024 0-2.048 0-2.048 0-17.408 0-34.816 0-52.224 0z" />
<glyph unicode="&#xe907;" d="M464.896 469.504c-5.12 0-9.216 0-14.336 0-12.288 0-24.576 0-37.888 0 1.024 0 1.024 0 2.048 0 17.408 0 33.792 0 50.176 0z" />
<glyph unicode="&#xe908;" d="M472.064 460.288c4.096 0 8.192 0 12.288 1.024 0 3.072 0 6.144 0 9.216 0-3.072 0-6.144 0-9.216 0 0-1.024-1.024-2.048-1.024-3.072 0-7.168 0-10.24 0z" />
<glyph unicode="&#xe909;" d="M454.656 752.128c5.12 0 10.24 0 15.36 0-5.12 0-10.24 0-15.36 0z" />
<glyph unicode="&#xe90a;" d="M621.568 555.52c1.024 5.12 0 11.264 2.048 16.384 2.048 8.192 6.144 15.36 12.288 21.504 5.12 6.144 12.288 11.264 19.456 15.36 14.336 6.144 29.696 7.168 45.056 1.024 19.456-8.192 31.744-22.528 35.84-44.032 1.024-4.096 1.024-8.192 1.024-12.288 0-78.848 0-157.696 0-237.568 0-1.024 0-2.048 0-3.072-38.912 0-76.8 0-115.712 0 0 54.272 0 109.568 0 163.84 3.072 0 6.144 0 9.216 0 0-51.2 0-102.4 0-154.624 32.768 0 64.512 0 96.256 0 0 1.024 0 1.024 0 2.048 0 50.176 0 100.352 0 150.528 0 1.024 0 1.024 0 2.048 0 12.288 0 23.552 0 35.84 0 14.336 0 27.648 0 41.984 0 2.048 0 5.12-1.024 7.168-3.072 27.648-31.744 46.080-58.368 40.96-22.528-5.12-36.864-23.552-37.888-47.104-2.048 0-5.12 0-8.192 0z" />
<glyph unicode="&#xe90b;" d="M457.728 478.72c0 21.504 0 43.008 0 64.512 0 4.096 0 8.192 0 12.288 3.072 0 6.144 0 9.216 0s5.12 0 8.192 0c17.408 0 34.816 0 52.224 0 0-25.6 0-51.2 0-76.8-2.048 0-3.072 0-4.096 0-18.432 0-36.864 0-56.32 0-3.072 0-6.144 0-9.216 0z" />
<glyph unicode="&#xe90c;" d="M527.36 478.72c0 25.6 0 51.2 0 76.8 12.288 0 24.576 0 35.84 0 3.072 0 6.144 0 9.216 0 8.192 0 16.384 0 24.576 0 0-25.6 0-51.2 0-76.8-8.192 0-16.384 0-24.576 0-3.072 0-6.144 0-9.216 0-11.264 0-23.552 0-35.84 0z" />
<glyph unicode="&#xe90d;" d="M598.016 478.72c0 25.6 0 51.2 0 76.8 8.192 0 16.384 0 24.576 0 3.072 0 6.144 0 9.216 0 12.288 0 24.576 0 35.84 0 0-25.6 0-51.2 0-76.8-12.288 0-24.576 0-35.84 0-3.072 0-6.144 0-9.216 0-9.216 0-16.384 0-24.576 0z" />
<glyph unicode="&#xe90e;" d="M293.888 372.224c0 21.504 0 44.032 0 65.536 0 4.096 0 8.192 0 12.288 3.072 0 6.144 0 9.216 0s5.12 0 8.192 0c17.408 0 34.816 0 52.224 0 0-25.6 0-51.2 0-76.8-1.024 0-3.072 0-4.096 0-18.432 0-37.888 0-56.32 0-3.072-1.024-6.144-1.024-9.216-1.024z" />
<glyph unicode="&#xe90f;" d="M363.52 372.224c0 25.6 0 51.2 0 76.8 12.288 0 24.576 0 35.84 0 3.072 0 6.144 0 9.216 0 8.192 0 16.384 0 24.576 0 0-25.6 0-51.2 0-76.8-8.192 0-16.384 0-24.576 0-3.072 0-6.144 0-9.216 0-12.288 0-23.552 0-35.84 0z" />
<glyph unicode="&#xe910;" d="M433.152 372.224c0 25.6 0 51.2 0 76.8 8.192 0 16.384 0 24.576 0 3.072 0 6.144 0 9.216 0 12.288 0 24.576 0 35.84 0 0-25.6 0-51.2 0-76.8-12.288 0-24.576 0-35.84 0-3.072 0-6.144 0-9.216 0-8.192 0-16.384 0-24.576 0z" />
<glyph unicode="&#xe911;" d="M503.808 372.224c0 25.6 0 51.2 0 76.8 2.048 0 3.072 0 5.12 0 18.432 0 36.864 0 55.296 0 3.072 0 6.144 0 9.216 0 0-21.504 0-43.008 0-64.512 0-4.096 0-8.192 0-13.312-3.072 0-6.144 0-9.216 0s-5.12 0-8.192 0c-17.408 1.024-34.816 1.024-52.224 1.024z" />
<glyph unicode="&#xe912;" d="M409.6 450.048c-3.072 0-6.144 0-9.216 0 0 25.6 0 51.2 0 75.776 0 9.216-3.072 18.432-7.168 26.624-12.288 20.48-39.936 28.672-60.416 17.408-18.432-9.216-27.648-24.576-27.648-45.056 0-25.6 0-50.176 0-75.776-3.072 0-6.144 0-9.216 0 0 19.456 0 37.888 0 57.344 0 8.192 0 17.408 0 26.624 0 5.12 2.048 10.24 4.096 15.36 3.072 8.192 8.192 15.36 15.36 21.504 8.192 7.168 18.432 11.264 29.696 13.312 15.36 2.048 28.672-1.024 40.96-10.24 14.336-10.24 22.528-23.552 24.576-40.96 0-3.072 1.024-6.144 1.024-10.24-2.048-22.528-2.048-47.104-2.048-71.68z" />
<glyph unicode="&#xe913;" d="M678.912 632.32c-27.648 0-48.128 22.528-48.128 49.152s20.48 47.104 49.152 47.104c27.648 0 48.128-21.504 48.128-48.128-1.024-28.672-23.552-49.152-49.152-48.128zM640 680.448c0-21.504 17.408-38.912 38.912-38.912s38.912 17.408 38.912 38.912-17.408 38.912-38.912 38.912c-21.504-1.024-38.912-18.432-38.912-38.912z" />
<glyph unicode="&#xe914;" d="M350.208 602.624c-27.648 0-48.128 22.528-48.128 49.152 1.024 26.624 20.48 47.104 49.152 47.104 27.648 0 48.128-21.504 48.128-48.128-1.024-27.648-23.552-48.128-49.152-48.128zM312.32 651.776c0-21.504 17.408-38.912 38.912-38.912s38.912 17.408 38.912 38.912-17.408 38.912-38.912 38.912c-21.504-1.024-38.912-18.432-38.912-38.912z" />
<glyph unicode="&#xe915;" d="M514.048 660.992c-27.648 0-48.128 22.528-48.128 49.152 1.024 26.624 20.48 47.104 49.152 47.104 26.624 0 48.128-21.504 48.128-48.128 0-28.672-23.552-48.128-49.152-48.128zM476.16 709.12c0-21.504 17.408-38.912 38.912-38.912s38.912 17.408 38.912 38.912-17.408 38.912-38.912 38.912-38.912-17.408-38.912-38.912z" />
<glyph unicode="&#xe916;" d="M573.44 555.52c-3.072 0-6.144 0-9.216 0 0 12.288 0 23.552-1.024 34.816-3.072 27.648-30.72 46.080-57.344 39.936-22.528-5.12-37.888-23.552-37.888-47.104 0-9.216 0-19.456 0-28.672-3.072 0-6.144 0-9.216 0 0 12.288 0 23.552 0 35.84 0 8.192 3.072 15.36 8.192 22.528 9.216 15.36 23.552 24.576 41.984 27.648 29.696 4.096 57.344-15.36 64.512-45.056 1.024-4.096 1.024-9.216 1.024-13.312-1.024-8.192-1.024-17.408-1.024-26.624z" />
<glyph unicode="&#xe917;" d="M399.36 372.224c3.072 0 6.144 0 9.216 0 0-19.456 0-38.912 0-57.344-38.912 0-76.8 0-115.712 0 0 19.456 0 38.912 0 57.344 3.072 0 6.144 0 9.216 0 0-16.384 0-31.744 0-48.128 32.768 0 64.512 0 96.256 0 1.024 16.384 1.024 32.768 1.024 48.128z" />
<glyph unicode="&#xe918;" d="M564.224 372.224c3.072 0 6.144 0 9.216 0 0-19.456 0-38.912 0-57.344-38.912 0-76.8 0-115.712 0 0 19.456 0 38.912 0 57.344 3.072 0 6.144 0 9.216 0 0-16.384 0-31.744 0-48.128 32.768 0 64.512 0 96.256 0 1.024 16.384 1.024 31.744 1.024 48.128z" />
<glyph unicode="&#xe919;" d="M466.944 450.048c-3.072 0-6.144 0-9.216 0 0 9.216 0 19.456 0 28.672 3.072 0 6.144 0 9.216 0 0-10.24 0-19.456 0-28.672z" />
<glyph unicode="&#xe91a;" d="M573.44 450.048c-3.072 0-6.144 0-9.216 0 0 9.216 0 19.456 0 28.672 3.072 0 6.144 0 9.216 0 0-10.24 0-19.456 0-28.672z" />
<glyph unicode="&#xe91b;" d="M728.064 478.72c-20.48 0-39.936 0-60.416 0 0 25.6 0 51.2 0 76.8 20.48 0 39.936 0 60.416 0 0-14.336 0-27.648 0-41.984 0-11.264 0-22.528 0-34.816z" />
<glyph unicode="&#xe91c;" d="M721.92 616.96c3.072-10.24 6.144-19.456 7.168-29.696 2.048-10.24 2.048-21.504 3.072-32.768-17.408 0-34.816 0-52.224 0 0 4.096 0 9.216-1.024 13.312-1.024 10.24-2.048 20.48-6.144 30.72 0 0 0 1.024 0 2.048 17.408 6.144 32.768 11.264 49.152 16.384z" />
<glyph unicode="&#xe91d;" d="M514.048 714.24c-15.36 0-30.72-2.048-46.080-6.144-5.12 14.336-9.216 28.672-14.336 44.032-1.024 2.048-1.024 3.072-2.048 5.12 20.48 7.168 40.96 10.24 62.464 10.24 0-18.432 0-35.84 0-53.248z" />
<glyph unicode="&#xe91e;" d="M514.048 384.512c15.36 0 29.696 2.048 44.032 6.144 1.024 0 1.024 0 2.048 0 4.096-12.288 8.192-24.576 12.288-35.84 1.024-4.096 3.072-8.192 5.12-12.288-10.24-4.096-21.504-7.168-32.768-8.192-10.24-1.024-19.456-1.024-29.696-2.048-1.024 18.432-1.024 35.84-1.024 52.224z" />
<glyph unicode="&#xe91f;" d="M357.376 598.528c-1.024-7.168-3.072-13.312-4.096-20.48-1.024-4.096-1.024-8.192-2.048-12.288s0-8.192-1.024-12.288c-1.024 0-2.048 0-4.096 0-16.384 0-31.744 0-48.128 0 0 21.504 3.072 41.984 10.24 61.44 0 0 1.024-1.024 1.024-1.024 6.144-2.048 12.288-4.096 19.456-6.144 10.24-4.096 19.456-6.144 28.672-9.216z" />
<glyph unicode="&#xe920;" d="M514.048 384.512c0-17.408 0-34.816 0-52.224-21.504 0-41.984 3.072-61.44 10.24 0 0 0 1.024 1.024 1.024 5.12 15.36 10.24 30.72 14.336 46.080 0 1.024 0 2.048 0 2.048 8.192-2.048 17.408-4.096 25.6-5.12 7.168-1.024 13.312-1.024 20.48-2.048z" />
<glyph unicode="&#xe921;" d="M679.936 554.496c17.408 0 34.816 0 52.224 0 0-21.504-3.072-41.984-10.24-61.44-6.144 2.048-11.264 4.096-17.408 5.12-10.24 3.072-21.504 7.168-31.744 10.24 2.048 7.168 3.072 15.36 5.12 22.528 1.024 9.216 1.024 16.384 2.048 23.552z" />
<glyph unicode="&#xe922;" d="M514.048 714.24c0 17.408 0 34.816 0 52.224 20.48 0 40.96-3.072 61.44-10.24-4.096-13.312-9.216-26.624-13.312-40.96-1.024-3.072-1.024-6.144-2.048-8.192-7.168 2.048-14.336 4.096-21.504 5.12-8.192 1.024-16.384 1.024-24.576 2.048z" />
<glyph unicode="&#xe923;" d="M299.008 552.448c16.384 0 31.744 0 48.128 0 1.024 0 2.048 0 4.096 0 0-15.36 2.048-29.696 6.144-44.032 0 0 0-1.024 0-1.024-16.384-5.12-32.768-10.24-48.128-15.36-2.048 9.216-5.12 18.432-7.168 27.648-3.072 10.24-4.096 21.504-3.072 32.768z" />
<glyph unicode="&#xe924;" d="M452.608 756.224c1.024-2.048 2.048-3.072 2.048-5.12 5.12-14.336 9.216-28.672 14.336-44.032-7.168-3.072-14.336-5.12-20.48-8.192s-13.312-7.168-19.456-10.24c-2.048-1.024-3.072-1.024-4.096 1.024-8.192 11.264-16.384 23.552-25.6 34.816-1.024 1.024-2.048 2.048-2.048 3.072 16.384 13.312 34.816 22.528 55.296 28.672z" />
<glyph unicode="&#xe925;" d="M721.92 616.96c-16.384-5.12-32.768-10.24-49.152-15.36-4.096 10.24-8.192 19.456-12.288 29.696-2.048 4.096-4.096 7.168-6.144 10.24-1.024 1.024-1.024 2.048 1.024 3.072 9.216 7.168 19.456 14.336 28.672 20.48 3.072 2.048 5.12 4.096 7.168 5.12 1.024 1.024 2.048 1.024 3.072 0 13.312-15.36 21.504-33.792 27.648-53.248z" />
<glyph unicode="&#xe926;" d="M672.768 509.44c10.24-3.072 21.504-7.168 31.744-10.24 6.144-2.048 11.264-4.096 17.408-5.12-6.144-20.48-15.36-38.912-28.672-55.296-13.312 10.24-26.624 19.456-40.96 29.696 6.144 9.216 11.264 19.456 15.36 29.696 3.072 3.072 4.096 7.168 5.12 11.264z" />
<glyph unicode="&#xe927;" d="M560.128 707.072c1.024 3.072 1.024 6.144 2.048 8.192 4.096 13.312 9.216 26.624 13.312 40.96 20.48-6.144 37.888-15.36 55.296-27.648-10.24-13.312-19.456-27.648-29.696-40.96-12.288 8.192-25.6 15.36-40.96 19.456z" />
<glyph unicode="&#xe928;" d="M576.512 342.528c-2.048 4.096-3.072 8.192-5.12 12.288-4.096 12.288-8.192 24.576-12.288 35.84 8.192 3.072 17.408 7.168 25.6 10.24 5.12 2.048 9.216 5.12 13.312 7.168 2.048 1.024 3.072 2.048 5.12-1.024 9.216-12.288 18.432-25.6 27.648-37.888-11.264-8.192-23.552-15.36-36.864-21.504-5.12 0-11.264-2.048-17.408-5.12z" />
<glyph unicode="&#xe929;" d="M308.224 491.008c16.384 5.12 32.768 10.24 48.128 15.36 2.048-6.144 4.096-11.264 6.144-17.408 3.072-7.168 7.168-15.36 11.264-22.528 1.024-2.048 1.024-3.072-1.024-5.12-12.288-8.192-23.552-17.408-34.816-25.6-1.024 0-1.024-1.024-2.048-2.048-4.096 6.144-8.192 11.264-11.264 17.408-6.144 13.312-12.288 26.624-16.384 39.936z" />
<glyph unicode="&#xe92a;" d="M357.376 598.528c-9.216 3.072-18.432 6.144-27.648 9.216-6.144 2.048-12.288 4.096-19.456 6.144 0 0-1.024 1.024-1.024 1.024 5.12 17.408 17.408 41.984 28.672 55.296 13.312-10.24 26.624-19.456 39.936-29.696-3.072-5.12-6.144-9.216-8.192-14.336-5.12-9.216-8.192-18.432-12.288-27.648z" />
<glyph unicode="&#xe92b;" d="M467.968 391.68c0-1.024 0-2.048 0-2.048-5.12-15.36-10.24-30.72-14.336-46.080 0 0 0-1.024-1.024-1.024-13.312 4.096-26.624 10.24-38.912 17.408-5.12 3.072-10.24 7.168-16.384 10.24 10.24 13.312 19.456 26.624 29.696 40.96 12.288-8.192 26.624-14.336 40.96-19.456z" />
<glyph unicode="&#xe92c;" d="M331.776 680.448c-2.048-3.072-4.096-5.12-5.12-7.168-11.264 8.192-22.528 16.384-33.792 24.576 0 0 0 1.024 0 1.024 36.864 6.144 72.704 11.264 109.568 16.384 6.144-36.864 11.264-72.704 17.408-110.592-3.072 2.048-6.144 4.096-9.216 6.144-5.12 4.096-11.264 8.192-16.384 12.288-3.072 2.048-5.12 4.096-8.192 6.144-1.024 1.024-2.048 2.048 0 3.072 2.048 2.048 3.072 4.096 4.096 6.144 5.12-4.096 10.24-8.192 15.36-11.264 0 0 1.024 0 1.024 0-4.096 25.6-8.192 51.2-12.288 77.824-25.6-4.096-51.2-8.192-77.824-12.288 5.12-5.12 10.24-8.192 15.36-12.288z" />
<glyph unicode="&#xe92d;" d="M714.752 415.232c-6.144 4.096-10.24 8.192-16.384 12.288 2.048 2.048 3.072 5.12 6.144 7.168 11.264-8.192 22.528-17.408 33.792-25.6-36.864-5.12-73.728-11.264-109.568-16.384-6.144 36.864-11.264 73.728-17.408 110.592 12.288-8.192 23.552-17.408 34.816-25.6 0 0 0-1.024 0-1.024-6.144-8.192-5.12-8.192-13.312-2.048-3.072 2.048-5.12 4.096-8.192 5.12 0-3.072 1.024-7.168 2.048-10.24 1.024-9.216 3.072-18.432 4.096-28.672 2.048-12.288 4.096-24.576 6.144-36.864 0-2.048 1.024-2.048 3.072-2.048 8.192 1.024 17.408 3.072 25.6 4.096 12.288 2.048 24.576 4.096 37.888 5.12 3.072 2.048 7.168 3.072 11.264 4.096z" />
<glyph unicode="&#xe92e;" d="M653.312 750.080c-4.096-5.12-8.192-10.24-12.288-16.384-3.072 2.048-5.12 4.096-8.192 5.12 8.192 11.264 16.384 22.528 25.6 34.816 5.12-36.864 11.264-73.728 16.384-110.592-36.864-6.144-72.704-11.264-109.568-17.408 3.072 5.12 6.144 8.192 9.216 12.288 5.12 7.168 10.24 14.336 15.36 20.48 1.024 1.024 2.048 2.048 3.072 1.024 2.048-1.024 4.096-3.072 6.144-4.096-4.096-5.12-8.192-11.264-12.288-16.384 5.12 1.024 10.24 1.024 14.336 2.048 15.36 2.048 31.744 5.12 48.128 7.168 5.12 1.024 9.216 2.048 14.336 2.048 2.048 0 2.048 1.024 2.048 2.048-1.024 7.168-2.048 14.336-3.072 21.504-1.024 5.12-1.024 9.216-2.048 14.336s-2.048 9.216-2.048 14.336c-1.024 5.12-1.024 11.264-2.048 16.384-1.024 3.072-2.048 6.144-3.072 11.264z" />
<glyph unicode="&#xe92f;" d="M374.784 349.696c4.096 5.12 8.192 11.264 12.288 16.384 3.072-2.048 5.12-3.072 7.168-5.12-8.192-11.264-16.384-22.528-25.6-34.816-5.12 36.864-11.264 73.728-16.384 110.592 36.864 6.144 72.704 11.264 109.568 17.408-8.192-12.288-17.408-23.552-25.6-35.84-2.048 2.048-5.12 4.096-7.168 6.144 4.096 6.144 8.192 11.264 12.288 17.408-26.624-4.096-52.224-8.192-77.824-12.288 3.072-27.648 7.168-53.248 11.264-79.872z" />
<glyph unicode="&#xe930;" d="M339.968 555.52c1.024 0 1.024 0 2.048 0 55.296 0 111.616 0 166.912 0 1.024 0 2.048 0 3.072 0 0 25.6 0 50.176 0 75.776 3.072 0 6.144 0 9.216 0 0-25.6 0-50.176 0-75.776 1.024 0 2.048 0 3.072 0 55.296 0 109.568 0 164.864 0 1.024 0 2.048 0 3.072 0 0-1.024 0-2.048 0-3.072 0-25.6 0-52.224 0-77.824 0-1.024 0-2.048 0-3.072-3.072 0-6.144 0-8.192 0 0 1.024 0 3.072 0 4.096 0 22.528 0 46.080 0 68.608 0 1.024-1.024 2.048-1.024 3.072-54.272 0-107.52 0-161.792 0 0-25.6 0-51.2 0-76.8 2.048 0 5.12 0 7.168 0-4.096-6.144-8.192-13.312-12.288-20.48-4.096 7.168-8.192 13.312-12.288 20.48 3.072 0 5.12 0 7.168 0 0 1.024 0 1.024 0 2.048 0 23.552 0 48.128 0 71.68 0 1.024 0 1.024 0 2.048-1.024 0-2.048 0-3.072 0-52.224 0-104.448 0-156.672 0-1.024 0-2.048 0-3.072 0 0-1.024 0-1.024 0-2.048 0-23.552 0-48.128 0-71.68 0 0 0-1.024 0-2.048 2.048 0 4.096 0 7.168 0-4.096-7.168-8.192-13.312-12.288-20.48-4.096 7.168-8.192 13.312-11.264 20.48 2.048 0 4.096 1.024 7.168 1.024 0 1.024 0 2.048 0 3.072 0 26.624 0 52.224 0 78.848 0 0 1.024 1.024 1.024 2.048z" />
<glyph unicode="&#xe931;" d="M422.912 655.872c0 8.192 0 16.384 0 24.576 0 0 0 0 0 0 1.024 0 3.072 0 4.096 0 58.368 0 117.76 0 176.128 0 1.024 0 3.072 0 4.096 0 0 0 0 0 0 0 0-8.192 0-16.384 0-24.576-1.024 0-2.048 0-3.072 0-59.392 0-118.784 0-178.176 0 0 1.024-1.024 0-3.072 0z" />
<glyph unicode="&#xe932;" d="M422.912 655.872c1.024 0 2.048 0 3.072 0 59.392 0 118.784 0 177.152 0 1.024 0 2.048 0 3.072 0 0-5.12 0-11.264 0-16.384s-3.072-7.168-7.168-8.192c0 0-1.024 0-1.024 0-55.296 0-110.592 0-165.888 0-1.024 0-2.048 0-3.072 0-5.12 0-7.168 3.072-7.168 8.192 1.024 5.12 1.024 11.264 1.024 16.384z" />
<glyph unicode="&#xe933;" d="M423.936 724.48c1.024 3.072 3.072 5.12 6.144 5.12 1.024 0 2.048 0 3.072 0 55.296 0 110.592 0 165.888 0 5.12 0 7.168-2.048 9.216-6.144 0-6.144 0-12.288 0-18.432-61.44 0-122.88 0-183.296 0-1.024 7.168-1.024 13.312-1.024 19.456z" />
<glyph unicode="&#xe934;" d="M295.936 384.512c0 11.264 0 22.528 0 33.792 0 9.216 6.144 14.336 14.336 14.336 11.264 0 21.504 0 32.768 0s22.528 0 33.792 0c9.216 0 14.336-5.12 14.336-14.336 0-22.528 0-44.032 0-66.56 0-9.216-5.12-14.336-14.336-14.336-22.528 0-45.056 0-67.584 0-7.168 0-11.264 3.072-13.312 9.216 0 2.048 0 3.072 0 5.12 0 11.264 0 21.504 0 32.768zM381.952 384.512c0 11.264 0 22.528 0 33.792 0 3.072-1.024 5.12-4.096 5.12-22.528 0-45.056 0-67.584 0-4.096 0-5.12-1.024-5.12-5.12 0-22.528 0-45.056 0-66.56 0-3.072 1.024-5.12 5.12-5.12 22.528 0 45.056 0 66.56 0 4.096 0 5.12 1.024 5.12 5.12 0 10.24 0 21.504 0 32.768z" />
<glyph unicode="&#xe935;" d="M640 385.536c0 11.264 0 21.504 0 32.768 0 9.216 5.12 14.336 14.336 14.336s19.456 0 29.696 0c12.288 0 24.576 0 36.864 0 9.216 0 14.336-5.12 15.36-15.36 0-21.504 0-44.032 0-65.536 0-9.216-5.12-14.336-14.336-14.336-22.528 0-44.032 0-66.56 0-9.216 0-14.336 5.12-14.336 14.336-1.024 11.264-1.024 22.528-1.024 33.792zM649.216 384.512c0-11.264 0-22.528 0-32.768 0-4.096 1.024-5.12 5.12-5.12 21.504 0 44.032 0 65.536 0 4.096 0 5.12 1.024 5.12 5.12 0 21.504 0 44.032 0 65.536 0 4.096-1.024 5.12-5.12 5.12-21.504 0-44.032 0-65.536 0-5.12 0-5.12-1.024-5.12-6.144 0-10.24 0-20.48 0-31.744z" />
<glyph unicode="&#xe936;" d="M563.2 347.648c-2.048-8.192-8.192-10.24-15.36-10.24-21.504 0-44.032 0-65.536 0-3.072 0-6.144 1.024-8.192 2.048-3.072 2.048-5.12 5.12-6.144 9.216 0 24.576 0 49.152 0 72.704 2.048 7.168 5.12 11.264 13.312 11.264 22.528 0 45.056 0 68.608 0 7.168 0 11.264-4.096 13.312-11.264 0-24.576 0-49.152 0-73.728zM515.072 346.624c11.264 0 22.528 0 32.768 0 4.096 0 5.12 1.024 5.12 5.12 0 22.528 0 44.032 0 66.56 0 4.096-1.024 5.12-5.12 5.12-22.528 0-44.032 0-66.56 0-4.096 0-5.12-1.024-5.12-5.12 0-22.528 0-44.032 0-66.56 0-4.096 1.024-5.12 5.12-5.12 12.288 0 23.552 0 33.792 0z" />
<glyph unicode="&#xe937;" d="M692.224 469.504c2.048 0 4.096 0 7.168 0-4.096-7.168-8.192-13.312-12.288-20.48-4.096 7.168-8.192 13.312-12.288 20.48 2.048 0 4.096 0 6.144 0 4.096 0 8.192 0 11.264 0z" />
<glyph unicode="&#xe938;" d="M527.36 469.504c-2.048 0-4.096 0-7.168 0 0 25.6 0 51.2 0 76.8 54.272 0 107.52 0 161.792 0 0 0 0 0 0 0-52.224 0-105.472 0-157.696 0-4.096 0-4.096 0-4.096-4.096 0-22.528 0-45.056 0-67.584 0-4.096 0-4.096 4.096-4.096 1.024 0 2.048-1.024 3.072-1.024z" />
<glyph unicode="&#xe939;" d="M423.936 706.048c61.44 0 122.88 0 183.296 0 0 0 0 0 0 0 0-8.192 0-16.384 0-24.576 0 0 0 0 0 0 0 7.168 0 14.336 0 21.504 0 2.048-1.024 3.072-3.072 3.072-3.072 0-6.144 0-9.216 0-56.32 0-111.616 0-167.936 0-3.072 0-4.096-1.024-3.072-3.072 0-7.168 0-13.312 0-20.48 0 0 0 0 0 0 0 7.168 0 15.36 0 23.552-1.024 0 0 0 0 0z" />
<glyph unicode="&#xe93a;" d="M681.984 546.304c0 0 0 0 0 0s1.024-2.048 1.024-3.072c0-22.528 0-46.080 0-68.608 0-1.024 0-2.048 0-4.096 3.072 0 5.12 0 8.192 0 0 1.024 0 2.048 0 3.072 0 25.6 0 52.224 0 77.824 0 1.024 0 2.048 0 3.072 0-1.024 0-2.048 0-3.072 0-26.624 0-53.248 0-78.848 0-1.024 0-2.048 0-3.072-3.072 0-7.168 0-10.24 0 0 1.024 1.024 2.048 1.024 2.048 0 23.552 0 48.128 0 72.704 1.024 1.024 0 1.024 0 2.048z" />
<glyph unicode="&#xe93b;" d="M431.104 632.32c1.024 0 2.048 0 3.072 0 55.296 0 110.592 0 165.888 0 0 0 1.024 0 1.024 0-1.024 0-2.048 0-3.072 0-24.576 0-49.152 0-73.728 0-1.024 0-2.048 0-3.072 0-3.072 0-6.144 0-9.216 0-1.024 0-2.048 0-3.072 0-24.576 0-49.152 0-73.728 0-2.048-1.024-3.072-1.024-4.096 0z" />
<glyph unicode="&#xe93c;" d="M349.184 546.304c1.024 0 2.048 0 3.072 0 52.224 0 104.448 0 156.672 0 1.024 0 2.048 0 3.072 0-55.296 0-109.568 0-162.816 0z" />
<glyph unicode="&#xe93d;" d="M339.968 555.52c0-1.024 0-2.048 0-3.072 0-26.624 0-52.224 0-78.848 0-1.024 0-2.048 0-3.072 0 27.648 0 54.272 0 81.92-1.024 1.024-1.024 2.048 0 3.072z" />
<glyph unicode="&#xe93e;" d="M563.2 347.648c0 24.576 0 49.152 0 73.728 0-1.024 0-2.048 0-3.072 0-22.528 0-45.056 0-68.608 0 0 0-1.024 0-2.048z" />
<glyph unicode="&#xe93f;" d="M467.968 421.376c0-24.576 0-49.152 0-72.704 0 1.024 0 2.048 0 3.072 0 22.528 0 45.056 0 67.584 0 0 0 1.024 0 2.048z" />
<glyph unicode="&#xe940;" d="M423.936 706.048c0 0 0 0 0 0 0 6.144-1.024 11.264-1.024 17.408 0 1.024 0 1.024 0 2.048 1.024-7.168 1.024-13.312 1.024-19.456z" />
<glyph unicode="&#xe941;" d="M608.256 706.048c-1.024 0-1.024 0 0 0 0 6.144 0 12.288 0 18.432 0-2.048 0-3.072 0-5.12 0-4.096 0-9.216 0-13.312z" />
<glyph unicode="&#xe942;" d="M423.936 681.472c0 7.168 0 13.312 0 20.48 0 3.072 1.024 3.072 3.072 3.072 56.32 0 111.616 0 167.936 0 3.072 0 6.144 0 9.216 0 2.048 0 3.072 0 3.072-3.072 0-7.168 0-14.336 0-21.504-1.024 0-3.072 0-4.096 0-58.368 0-117.76 0-176.128 0-1.024 1.024-2.048 1.024-3.072 1.024z" />
</font>
</defs>
</svg>
